Quick Browse
Movies
TV shows
Music
Games
Applications
Anime
Other

Latest Articles

Friends
Torrents.me
Torrent Download
Movie4u
1337x
RARBG
Full Movies
Torrent Downloads

Verified torrent Show Me A Hero Part 5 720p HDTV x264-KILLERS[rartv]


    Seeders : 123      Leechers : 114

Hash :F06BE63165E2E99B84B53EF5E8551D09BFA10F6D
Added :1 Year+ in TV shows
Size :1.18 GB
Stream :Watch Online Full Movie @ Movie4u
Share :










Note :

Please Update (Trackers Info) Before Downloading Torrents to See Updated Seeders And Leechers for Batter Download Speed.

Trackers List

Tracker NameLast CheckStatusSeedersLeechers
udp://9.rarbg.to:2710/announce1 Year+success123107
udp://9.rarbg.me:2710/announce1 Year+success123107
udp://9.rarbg.com:2710/announce1 Year+success123107
udp://tracker.trackerfix.com:80/announce1 Year+success116114
http://tracker.trackerfix.com/announce1 Year+success116114
udp://tracker.openbittorrent.com:80/announce1 Year+success3341
udp://tracker.pomf.se:80/announce1 Year+success3341
udp://tracker.coppersurfer.tk:6969/announce1 Year+success812
udp://tracker.coppersurfer.tk:801 Year+success812
udp://glotorrents.pw:6969/announce1 Year+success31
udp://tracker4.piratux.com:6969/announce1 Year+success21
http://torrent.gresille.org/announce1 Year+success00
http://bigfoot1942.sektori.org:6969/announce1 Year+success00
http://tracker.nwps.ws:6969/announce1 Year+success00
udp://open.demonii.com:1337/announce1 Year+success00




Torrent File Content (3 files)


Show.Me.A.Hero.Part.5.720p.HDTV.x264-KILLERS[rarbg]
     RARBG.com.txt -
34 bytes

     Show.Me.A.Hero.Part.5.720p.HDTV.x264-KILLERS.mkv -
1.18 GB

     show.me.a.hero.part.5.720p.hdtv.x264-killers.nfo -
10.62 KB



Description



 							image
Screenshots:
image

Show.Me.A.Hero.Part.5.720p.HDTV.x264-KILLERS

Day: 2015-08-31
Resolution: 1280x720
Size: 1.18 GiB
FrameRate: 23.976
Length: 00:55:17.314
Bitrate: 2614 Kbps

n***** We all miss you. Come back soon.

Media info:

Video
ID : 1
Format : AVC
Format/Info : Advanced Video Codec
Format profile : [email protected]
Format settings, CABAC : Yes
Format settings, ReFrames : 5 frames
Codec ID : V_MPEG4/ISO/AVC
Duration : 55mn 17s
Bit rate : 2 614 Kbps
Width : 1 280 pixels
Height : 720 pixels
Display aspect ratio : 16:9
Frame rate mode : Constant
Frame rate : 23.976 fps
Color space : YUV
Chroma subsampling : 4:2:0
Bit depth : 8 bits
Scan type : Progressive
Bits/(Pixel*Frame) : 0.118
Stream size : 1.01 GiB (85%)
Writing library : x264 core 148 r2597 e86f3a1
Encoding settings : cabac=1 / ref=5 / deblock=1:0:0 / analyse=0x3:0x113 / me=umh / subme=8 / psy=1 / psy_rd=1.00:0.00 / mixed_ref=1 / me_range=16 / chroma_me=1 / trellis=1 / 8x8dct=1 / cqm=0 / deadzone=21,11 / fast_pskip=1 / chroma_qp_offset=-2 / threads=22 / lookahead_threads=3 / sliced_threads=0 / nr=0 / decimate=1 / interlaced=0 / bluray_compat=0 / constrained_intra=0 / bframes=3 / b_pyramid=2 / b_adapt=2 / b_bias=0 / direct=3 / weightb=1 / open_gop=0 / weightp=2 / keyint=250 / keyint_min=23 / scenecut=40 / intra_refresh=0 / rc_lookahead=50 / rc=crf / mbtree=1 / crf=18.0 / qcomp=0.60 / qpmin=0 / qpmax=69 / qpstep=4 / ip_ratio=1.40 / aq=1:1.00
Language : English
Default : Yes
Forced : No
Color range : Limited
Matrix coefficients : BT.709

Audio
ID : 2
Format : AC-3
Format/Info : Audio Coding 3
Mode extension : CM (complete main)
Format settings, Endianness : Big
Codec ID : A_AC3
Duration : 55mn 17s
Bit rate mode : Constant
Bit rate : 384 Kbps
Channel(s) : 6 channels
Channel positions : Front: L C R, Side: L R, LFE
Sampling rate : 48.0 KHz
Compression mode : Lossy
Stream size : 152 MiB (13%)
Default : Yes
Forced : No

Related torrents

Torrent NameAddedSizeSeedLeechHealth
Verified torrent
1 Year+ - in TV shows1.42 GB125103
1 Year+ - in TV shows1.23 GB00
1 Year+ - in TV shows1.22 GB00
1 Year+ - in TV shows1.18 GB43
1 Year+ - in TV shows1.16 GB11

Note :

Feel free to post any comments about this torrent, including links to Subtitle, samples, screenshots, or any other relevant information. Please Dont Download anything from Comments, And Dont Post Links to Streaming Sites like Fmovies, Xmovies8, 123Movies, GoMovies, CMovieshd, Solarmovie, Watchfree, Putlockers, GoStream, m4ufree etc.

Comments (0 Comments)




Please login or create a FREE account to post comments

Latest Searches

| bbc heritage | dont stop believingjourney | on my way ingrosso extended | susan t fiske | chicane thousand | Dalush behind | m k remix | roy ac | taken 2 two | frances housden chieftain series ebooks 1 6 epub mobi highlander romance |
Sitemap